[REUP] Captain America - Civil War 2016 (1080p Bluray x265 HEVC 1...

  • Category Movies
  • Type HEVC/x265
  • Language English
  • Total size 3.8 GB
  • Uploaded By UTRplus
  • Downloads 430
  • Last checked 3 days ago
  • Date uploaded 1 week ago
  • Seeders 44
  • Leechers 13

Infohash : 2502C5E2B856333A8864FB860431ABF80928C2BA



Captain America: Civil War 2016 in 1080p, encoded with x265 in HEVC and AAC 7.1 English, with subtitles!
Encoded using the time consuming 2 pass, 10 bit color at 2536 kbps, from a Blu-ray source, for the highest quality possible.



Media Information

Code:

General
Unique ID : 247948780702227699442880796850150266734 (0xBA8932B97DC5092E9C4202746105576E)
Complete name : Captain America - Civil War 2016 (1080p x265 10bit Tigole).mkv
Format : Matroska
Format version : Version 4 / Version 2
File size : 3.13 GiB
Duration : 2h 27mn
Overall bit rate : 3 030 Kbps
Movie name : MARVEL'S CAPTAIN AMERICA: CIVIL WAR - BLU-RAY
Encoded date : UTC 2016-08-31 04:52:15
Writing application : mkvmerge v9.2.0 ('Photograph') 64bit
Writing library : libebml v1.3.3 + libmatroska v1.4.4

Video
ID : 1
Format : HEVC
Format/Info : High Efficiency Video Coding
Format profile : Main [email protected]@Main
Codec ID : V_MPEGH/ISO/HEVC
Duration : 2h 27mn
Bit rate : 2 536 Kbps
Width : 1 920 pixels
Height : 800 pixels
Display aspect ratio : 2.40:1
Frame rate mode : Constant
Frame rate : 23.976 (24000/1001) fps
Color space : YUV
Chroma subsampling : 4:2:0
Bit depth : 10 bits
Bits/(Pixel*Frame) : 0.069
Stream size : 2.62 GiB (84%)
Writing library : x265 1.9+200-6098ba3e0cf16b11:[Windows][GCC 5.3.0][64 bit] 10bit
Encoding settings : wpp / ctu=64 / min-cu-size=8 / max-tu-size=32 / tu-intra-depth=1 / tu-inter-depth=1 / me=1 / subme=2 / merange=57 / no-rect / no-amp / max-merge=2 / temporal-mvp / no-early-skip / recursion-skip / rdpenalty=0 / no-tskip / no-tskip-fast / strong-intra-smoothing / no-lossless / no-cu-lossless / no-constrained-intra / no-fast-intra / open-gop / no-temporal-layers / interlace=0 / keyint=250 / min-keyint=23 / scenecut=40 / rc-lookahead=20 / lookahead-slices=5 / bframes=4 / bframe-bias=0 / b-adapt=2 / ref=3 / limit-refs=3 / no-limit-modes / weightp / no-weightb / aq-mode=1 / qg-size=32 / aq-strength=1.00 / cbqpoffs=0 / crqpoffs=0 / rd=3 / psy-rd=2.00 / rdoq-level=0 / psy-rdoq=0.00 / no-rd-refine / signhide / deblock=0:0 / sao / no-sao-non-deblock / b-pyramid / cutree / no-intra-refresh / rc=2 / pass / bitrate=2536 / qcomp=0.60 / qpmin=0 / qpmax=51 / qpstep=4 / cplxblur=20.0 / qblur=0.5 / ipratio=1.40 / pbratio=1.30
Default : Yes
Forced : No

Audio #1
ID : 2
Format : AAC
Format/Info : Advanced Audio Codec
Format profile : LC
Codec ID : A_AAC
Duration : 2h 27mn
Bit rate : 393 Kbps
Channel(s) : 8 channels
Channel positions : Front: L C R, Side: L R, Back: L R, LFE
Sampling rate : 48.0 KHz
Frame rate : 46.875 fps (1024 spf)
Compression mode : Lossy
Delay relative to video : 20ms
Stream size : 415 MiB (13%)
Language : English
Default : No
Forced : No

Audio #2
ID : 3
Format : AAC
Format/Info : Advanced Audio Codec
Format profile : HE-AAC / LC
Codec ID : A_AAC
Duration : 2h 27mn
Bit rate : 50.0 Kbps
Channel(s) : 2 channels
Channel positions : Front: L R
Sampling rate : 48.0 KHz / 24.0 KHz
Frame rate : 23.438 fps (1024 spf)
Compression mode : Lossy
Delay relative to video : 31ms
Stream size : 52.9 MiB (2%)
Language : English
Default : No
Forced : No

Text #1
ID : 4
Format : VobSub
Muxing mode : zlib
Codec ID : S_VOBSUB
Codec ID/Info : Picture based subtitle format used on DVDs
Duration : 2h 26mn
Bit rate : 6 126 bps
Count of elements : 2105
Stream size : 6.41 MiB (0%)
Language : English
Default : No
Forced : No

Text #2
ID : 5
Format : VobSub
Muxing mode : zlib
Codec ID : S_VOBSUB
Codec ID/Info : Picture based subtitle format used on DVDs
Duration : 2h 27mn
Bit rate : 17.0 Kbps
Count of elements : 3473
Stream size : 17.9 MiB (1%)
Title : Commentary
Language : English
Default : No
Forced : No

Text #3
ID : 6
Format : VobSub
Muxing mode : zlib
Codec ID : S_VOBSUB
Codec ID/Info : Picture based subtitle format used on DVDs
Duration : 1h 44mn
Bit rate : 109 bps
Count of elements : 59
Stream size : 84.4 KiB (0%)
Language : English
Default : No
Forced : Yes

Text #4
ID : 7
Format : VobSub
Muxing mode : zlib
Codec ID : S_VOBSUB
Codec ID/Info : Picture based subtitle format used on DVDs
Duration : 2h 26mn
Bit rate : 3 576 bps
Count of elements : 1691
Stream size : 3.74 MiB (0%)
Language : Arabic
Default : No
Forced : No

Text #5
ID : 8
Format : VobSub
Muxing mode : zlib
Codec ID : S_VOBSUB
Codec ID/Info : Picture based subtitle format used on DVDs
Duration : 2h 26mn
Bit rate : 5 036 bps
Count of elements : 1553
Stream size : 5.27 MiB (0%)
Language : Dutch
Default : No
Forced : No

Text #6
ID : 9
Format : VobSub
Muxing mode : zlib
Codec ID : S_VOBSUB
Codec ID/Info : Picture based subtitle format used on DVDs
Duration : 2h 26mn
Bit rate : 4 671 bps
Count of elements : 1614
Stream size : 4.89 MiB (0%)
Language : French
Default : No
Forced : No

Text #7
ID : 10
Format : VobSub
Muxing mode : zlib
Codec ID : S_VOBSUB
Codec ID/Info : Picture based subtitle format used on DVDs
Duration : 2h 27mn
Bit rate : 11.7 Kbps
Count of elements : 3189
Stream size : 12.3 MiB (0%)
Title : Commentary
Language : French
Default : No
Forced : No

Menu
00:00:00.000 : en:Chapter 01
00:09:01.958 : en:Chapter 02
00:13:04.992 : en:Chapter 03
00:21:03.345 : en:Chapter 04
00:27:53.380 : en:Chapter 05
00:31:57.290 : en:Chapter 06
00:35:08.397 : en:Chapter 07
00:42:58.450 : en:Chapter 08
00:52:04.621 : en:Chapter 09
01:05:39.101 : en:Chapter 10
01:16:41.638 : en:Chapter 11
01:22:28.777 : en:Chapter 12
01:29:29.489 : en:Chapter 13
01:34:09.769 : en:Chapter 14
01:45:38.582 : en:Chapter 15
01:55:54.322 : en:Chapter 16
02:02:35.056 : en:Chapter 17
02:12:14.176 : en:Chapter 18
02:18:29.384 : en:Chapter 19


Source Information

Code:

Unique ID : 234829923016660503533047502367463834958 (0xB0AA991A4D6D915CF7D2EF030E40054E)
Complete name : Captain.America.Civil.War.2016.1080p.BluRay.AVC.DTS-HD.MA.7.1-FGT.mkv
File size : 35.4 GiB
Duration : 2h 27mn
Overall bit rate mode : Variable
Overall bit rate : 34.3 Mbps


Files:

Captain America - Civil War 2016 (1080p Bluray x265 HEVC 10bit AAC 7.1 Tigole)
  • Captain America - Civil War 2016 (1080p x265 10bit Tigole).mkv (3.1 GB)
  • Featurettes
    • Captain America - The Road to Civil War.mkv (40.1 MB)
    • Deleted Scenes.mkv (40.6 MB)
    • Gag Reel.mkv (24.2 MB)
    • Iron Man - The Road to Civil War.mkv (42.2 MB)
    • Preview of Doctor Strange.mkv (46.5 MB)
    • United We Stand, Divided We Fall - The Making of Captain - America Civil War - Part 1.mkv (258.9 MB)
    • United We Stand, Divided We Fall - The Making of Captain - America Civil War - Part 2.mkv (267.7 MB)

There are currently no comments. Feel free to leave one :)

Code:

  • udp://torrent.gresille.org:80/announce
  • udp://tracker.opentrackr.org:1337/announce
  • udp://tracker.coppersurfer.tk:6969/announce